Good Time (2017)

  • Drama
  • Kino/DVD

Diese Seite verwendet Cookies. Durch die Nutzung unserer Seite erklären Sie sich damit einverstanden, dass wir Cookies setzen. Weitere Informationen

Bevor ihr (in DIESEM Forum) sinnentstellte LIKE-Orgien startet, solltet ihr die Moviethek-Regeln lesen!
Lesen schützt — wie immer — auch vor Verwarnung!
Der Meinungsaustausch über hier vorgestellte Filme kann im Film & Kino Talk stattfinden.

  • Good Time (2017)

    Good Time 2017 German AC3 Dubbed BDRiP XViD - FURTUM


    Realistisch packendes Gangsterdrama mit Robert Pattinson über zwei Brüder, die nach einem gescheiterten Coup in einem Strudel aus Gewalt versinken
    (KINOSTART: 02.11.2017)





    Inhalt

    Connie (Robert Pattinson) raubt eine Bank aus und wähnt sich in Sicherheit, weil der Coup ihm scheinbar gelungen ist – nur sein Komplize und jüngerer Bruder landet im Knast. Als er versucht ihn zu befreien muss Connie während einer Odyssee durch die New Yorker Unterwelt feststellen, dass eine Gruppe von Leuten ist auf ihn angesetzt worden ist und sie ihm von Minute zu Minute näherkommen. Was er auch versucht, er schafft es nicht, sie abzuschütteln und nicht nur sein, sondern auch das Leben seines inhaftierten Bruders stehen auf dem Spiel...



    Weiterführende Informationen und Bezugsquellen per Konversation ()



    Abwesenheit: 26.11.2018 bis 23.12.2018
  • Format: avi
    Laufzeit: 101 Min.
    Größe: 1,2 GB

    NFO:

    Duration : 1 h 41 min
    Overall bit rate : 1 628 kb/s
    Movie name : Good.Time.2017.German.AC3.Dubbed.720p.BluRay.x264-BOXOFFiCE
    Writing application : Lavf56.9.100

    Video
    ID : 0
    Format : MPEG-4 Visual
    Format profile : Advanced Simple@L5
    Format settings : BVOP2
    Format settings, BVOP : 2
    Format settings, QPel : No
    Format settings, GMC : No warppoints
    Format settings, Matrix : Default (MPEG)
    Muxing mode : Packed bitstream
    Codec ID : XVID
    Codec ID/Hint : XviD
    Duration : 1 h 41 min
    Bit rate : 1 423 kb/s
    Width : 1 280 pixels
    Height : 536 pixels
    Display aspect ratio : 2.40:1
    Frame rate : 24.000 FPS
    Color space : YUV
    Chroma subsampling : 4:2:0
    Bit depth : 8 bits
    Scan type : Progressive
    Compression mode : Lossy
    Bits/(Pixel*Frame : 0.086
    Stream size : 1.00 GiB (87%)
    Writing library : XviD 64

    Audio
    ID : 1
    Format : AC-3
    Format/Info : Audio Coding 3
    Codec ID : 2000
    Duration : 1 h 41 min
    Bit rate mode : Constant
    Bit rate : 192 kb/s
    Channel(s : 2 channels
    Channel positions : Front: L R
    Sampling rate : 48.0 kHz
    Frame rate : 31.250 FPS (1536 SPF)
    Bit depth : 16 bits
    Compression mode : Lossy
    Stream size : 139 MiB (12%)
    Alignment : Aligned on interleaves
    Interleave, duration : 32 ms (0.77 video frame)
    Service kind : Complete Main

    Abwesenheit: 26.11.2018 bis 23.12.2018