*.mp3 Datei über *.cue brennen funktioniert nicht richtig

Diese Seite verwendet Cookies. Durch die Nutzung unserer Seite erklären Sie sich damit einverstanden, dass wir Cookies setzen. Weitere Informationen

  • *.mp3 Datei über *.cue brennen funktioniert nicht richtig

    Hi!!!

    Ich habe hier ein Album mit 2 CD's. Allerdings sind alle Titel in einer *.mp3 Datei. Sprich, wenn ich später von Lied zu Lied skippen möchte, geht es nicht, da es ja nur eine Datei ist.

    Aus diesem Grund ist sicherlich die *.cue dabei. Ich denke mal, wenn ich diese brenne, dann macht er mir zwischen den Tracks ein paar Pausen rein..

    Doch, wenn ich diese *.cue brennen will, zeigt er an:

    "******* kann nicht geöffnet werden"

    ich hab mir die *.cue angeguckt..

    hier ist sie:


    PERFORMER "VA"
    TITLE "Bar Lounge Classics - Cuba Edition "
    FILE "101_va_-_bar_lounge_classics-cuba_edition.mp3.mp3" MP3
    TRACK 01 AUDIO
    TITLE "Celia's Oye Como Va"
    PERFORMER "CELIA CRUZ"
    INDEX 01 00:00:00
    TRACK 02 AUDIO
    TITLE "De Cuba Vengo Y Cubano Soy"
    PERFORMER "CANDIDO FABRÉ & SU BANDA"
    INDEX 00 04:16:62
    INDEX 01 04:18:28
    TRACK 03 AUDIO
    TITLE "Que Lió, Compay Andrés"
    PERFORMER "ELIADES OCHOA"
    INDEX 00 09:06:32
    INDEX 01 09:08:06
    TRACK 04 AUDIO
    TITLE "Que Manera De Quererte"
    PERFORMER "OMARA PORTUONDO"
    INDEX 00 12:55:71
    INDEX 01 12:57:56
    TRACK 05 AUDIO
    TITLE "El Muntuno de María"
    PERFORMER "MAURICIO VENGAS & EFRAIN RIOS"
    INDEX 00 16:16:17
    INDEX 01 16:17:56
    TRACK 06 AUDIO
    TITLE "Mami te gusto"
    PERFORMER "AFRO CUBAN ALL-STARS feat. FÉLIX BALOY"
    INDEX 00 20:40:64
    INDEX 01 20:42:36
    TRACK 07 AUDIO
    TITLE "La Guarapachanga"
    PERFORMER "TERESA GARCIA CATURLA"
    INDEX 00 26:15:05
    INDEX 01 26:16:68
    TRACK 08 AUDIO
    TITLE "Yo Soy El Punto Cubano"
    PERFORMER "CELINA GONZÁLEZ"
    INDEX 00 30:32:33
    INDEX 01 30:34:18
    TRACK 09 AUDIO
    TITLE "Chan Chan"
    PERFORMER "PAPI OVIEDO & SUS SONEROS"
    INDEX 00 34:34:10
    INDEX 01 34:35:68
    TRACK 10 AUDIO
    TITLE "Cuéntame"
    PERFORMER "LOS VAN VAN"
    INDEX 00 41:03:35
    INDEX 01 41:05:31
    TRACK 11 AUDIO
    TITLE "Luna Negra"
    PERFORMER "REY RUIZ"
    INDEX 00 45:25:47
    INDEX 01 45:27:31
    TRACK 12 AUDIO
    TITLE "Romántica Mujer"
    PERFORMER "CACHAO"
    INDEX 00 50:11:26
    INDEX 01 50:13:06
    TRACK 13 AUDIO
    TITLE "Pido"
    PERFORMER "DANAE"
    INDEX 00 54:31:01
    INDEX 01 54:32:55
    TRACK 14 AUDIO
    TITLE "Te Apartas De Mi"
    PERFORMER "COMPAY SEGUNDO"
    INDEX 00 59:01:04
    INDEX 01 59:02:56


    ich denke, dass im Dateinamen das eine *.mp3 zu viel ist.

    Doch, wenn ich das eine *.mp3 wegnehme, dann versucht er die zwar zu öffnen, doch das bringt irgendwie mein Nero zum Abschmieren......

    Könnte mir da jetzt einer helfen? wie ich mein Problem lösen kann?

    Gruß, Rudi
  • Ich benutz mp3DirektCut und splitte die Cd vorher auf und brenn die einzelnen Tracks dann mit nero...

    Versuch das mal - viell funzt das besser...

    mp3DirektCut: h++p://www.mpesch3.de/
  • hi,
    ich habe genau dasselbe problem mit einer mp3 (snoop dog) in der alle tracks aneinandergehängt sind und eine *cue mit dabei ist.
    wenn ich die cue mit nero öffnen will, kommt auch die fehlermeldung.
    ich habe schon hin und her probiert, bekomme das ding aber nicht zum laufen bzw. brennen.
  • Jop, stimmte alles überein...

    Nachdem ich diese Zeile verändert hatte

    FILE "101_va_-_bar_lounge_classics-cuba_edition.mp3.mp3" MP3


    und zwar in


    FILE "101_va_-_bar_lounge_classics-cuba_edition.mp3" MP3


    danach hat mein nero ja nicht wirklich weiter gemacht.. Hab aber einfach mal gewartet (~5Minuten) und dann hat's letztendlich doch geklappt.. Also matzek, musst vielleicht einfach mal gucken, ob alles übereinstimmt..

    Gruß, Rudi
  • also bei mir funzt es nicht und ich kann irgendwie auch keinen fehler in der cue entdecken.

    die mp3 heisst so:

    Quellcode

    1. Snoop Dogg - Dogg Pound Mix.mp3


    und in der cue steht folgendes drin:

    Quellcode

    1. PERFORMER "snoop dogg"
    2. TITLE "dogg pound mix"
    3. FILE "Snoop Dogg - Dogg Pound Mix.mp3" MP3
    4. TRACK 01 AUDIO
    5. TITLE "if your friends (what wold i be) feat toddy tee"
    6. PERFORMER "snoop dogg"
    7. FLAGS DCP
    8. INDEX 01 00:00:00
    9. TRACK 02 AUDIO
    10. TITLE "a story to tell feat kurupt"
    11. PERFORMER "snoop dogg"
    12. FLAGS DCP
    13. INDEX 00 00:35:46
    14. INDEX 01 00:37:54
    15. TRACK 03 AUDIO
    16. TITLE "new york new york feat tha dogg poung"
    17. PERFORMER "snoop dogg"
    18. FLAGS DCP
    19. INDEX 00 02:14:68
    20. INDEX 01 02:16:68
    21. TRACK 04 AUDIO
    22. TITLE "me and my homies feat 2pac and nate dogg"
    23. PERFORMER "snoop dogg"
    24. FLAGS DCP
    25. INDEX 00 03:31:17
    26. INDEX 01 03:33:17
    27. TRACK 05 AUDIO
    28. TITLE "don't give a fuck feat sanyika shakur"
    29. PERFORMER "snoop dogg"
    30. FLAGS DCP
    31. INDEX 00 05:42:18
    32. INDEX 01 05:44:18
    33. TRACK 06 AUDIO
    34. TITLE "no more games feat prince ital joe and nate dogg"
    35. PERFORMER "snoop dogg"
    36. FLAGS DCP
    37. INDEX 00 06:47:12
    38. INDEX 01 06:49:12
    39. TRACK 07 AUDIO
    40. TITLE "whatchu talkin' about feat daz dillinger and young wee"
    41. PERFORMER "snoop dogg"
    42. FLAGS DCP
    43. INDEX 00 08:12:55
    44. INDEX 01 08:14:55
    45. TRACK 08 AUDIO
    46. TITLE "articulate thug fest rass kass and eastwood"
    47. PERFORMER "snoop dogg"
    48. FLAGS DCP
    49. INDEX 00 10:01:65
    50. INDEX 01 10:03:65
    51. TRACK 09 AUDIO
    52. TITLE "mo' chedda feat k dee and glock"
    53. PERFORMER "snoop dogg"
    54. FLAGS DCP
    55. INDEX 00 12:10:40
    56. INDEX 01 12:12:40
    57. TRACK 10 AUDIO
    58. TITLE "pimp slap"
    59. PERFORMER "snoop dogg"
    60. FLAGS DCP
    61. INDEX 00 13:57:30
    62. INDEX 01 13:59:30
    63. TRACK 11 AUDIO
    64. TITLE "xchange feat typhoon"
    65. PERFORMER "snoop dogg"
    66. FLAGS DCP
    67. INDEX 00 16:21:34
    68. INDEX 01 16:23:34
    69. TRACK 12 AUDIO
    70. TITLE "cali california"
    71. PERFORMER "snoop dogg"
    72. FLAGS DCP
    73. INDEX 00 17:52:69
    74. INDEX 01 17:54:69
    75. TRACK 13 AUDIO
    76. TITLE "i need a rolex feat dr dre, ice t and dj yella"
    77. PERFORMER "snoop dogg"
    78. FLAGS DCP
    79. INDEX 00 19:15:34
    80. INDEX 01 19:17:34
    81. TRACK 14 AUDIO
    82. TITLE "ride feat eastwood"
    83. PERFORMER "snoop dogg"
    84. FLAGS DCP
    85. INDEX 00 20:55:26
    86. INDEX 01 20:57:26
    87. TRACK 15 AUDIO
    88. TITLE "gangster boogie feat dr dre and toddy tee"
    89. PERFORMER "snoop dogg"
    90. FLAGS DCP
    91. INDEX 00 22:04:22
    92. INDEX 01 22:06:22
    93. TRACK 16 AUDIO
    94. TITLE "two of amerikaz most wanted feat 2pac"
    95. PERFORMER "snoop dogg"
    96. FLAGS DCP
    97. INDEX 00 23:23:53
    98. INDEX 01 23:25:53
    99. TRACK 17 AUDIO
    100. TITLE "never leave me alone feat nate dogg"
    101. PERFORMER "snoop dogg"
    102. FLAGS DCP
    103. INDEX 00 25:19:58
    104. INDEX 01 25:21:58
    105. TRACK 18 AUDIO
    106. TITLE "ain't no fun"
    107. PERFORMER "snoop dogg"
    108. FLAGS DCP
    109. INDEX 00 26:41:26
    110. INDEX 01 26:43:26
    111. TRACK 19 AUDIO
    112. TITLE "dogghouse feat locs, rappin 4 tay and tracy dee"
    113. PERFORMER "snoop dogg"
    114. FLAGS DCP
    115. INDEX 00 27:58:00
    116. INDEX 01 28:00:00
    117. TRACK 20 AUDIO
    118. TITLE "if your friends seen me (what would i be) feat toddy tee"
    119. PERFORMER "snoop dogg"
    120. FLAGS DCP
    121. INDEX 00 30:10:45
    122. INDEX 01 30:12:45
    123. TRACK 21 AUDIO
    124. TITLE "a story to tell feat kurupt"
    125. PERFORMER "snoop dogg"
    126. FLAGS DCP
    127. INDEX 00 31:28:23
    128. INDEX 01 31:30:23
    129. TRACK 22 AUDIO
    130. TITLE "new york new york feat tha dogg pound"
    131. PERFORMER "snoop dogg"
    132. FLAGS DCP
    133. INDEX 00 33:00:17
    134. INDEX 01 33:02:17
    135. TRACK 23 AUDIO
    136. TITLE "me and my homies feat 2pac and nate dogg"
    137. PERFORMER "snoop dogg"
    138. FLAGS DCP
    139. INDEX 00 35:00:62
    140. INDEX 01 35:02:62
    141. TRACK 24 AUDIO
    142. TITLE "don't give a fuck feat sanyika shakur"
    143. PERFORMER "snoop dogg"
    144. FLAGS DCP
    145. INDEX 00 37:33:55
    146. INDEX 01 37:35:55
    147. TRACK 25 AUDIO
    148. TITLE "whatchu talkin' about feat daz dillinger and young wee"
    149. PERFORMER "snoop dogg"
    150. FLAGS DCP
    151. INDEX 00 40:31:08
    152. INDEX 01 40:33:08
    153. TRACK 26 AUDIO
    154. TITLE "dogg pound gangstaville feat kurupt and nate dogg"
    155. PERFORMER "snoop dogg"
    156. FLAGS DCP
    157. INDEX 00 42:39:05
    158. INDEX 01 42:41:05
    159. TRACK 27 AUDIO
    160. TITLE "getcha girl dogg feat jay o felony and supafly"
    161. PERFORMER "snoop dogg"
    162. FLAGS DCP
    163. INDEX 00 44:45:22
    164. INDEX 01 44:47:22
    165. TRACK 28 AUDIO
    166. TITLE "articulate thug feat ras kass and eastwood"
    167. PERFORMER "snoop dogg"
    168. FLAGS DCP
    169. INDEX 00 46:59:44
    170. INDEX 01 47:01:44
    171. TRACK 29 AUDIO
    172. TITLE "mo' cheda feat k dee and glock"
    173. PERFORMER "snoop dogg"
    174. FLAGS DCP
    175. INDEX 00 50:18:43
    176. INDEX 01 50:20:43
    177. TRACK 30 AUDIO
    178. TITLE "pimp slap"
    179. PERFORMER "snoop dogg"
    180. FLAGS DCP
    181. INDEX 00 52:27:29
    182. INDEX 01 52:29:29
    183. TRACK 31 AUDIO
    184. TITLE "xchange feat typhoon"
    185. PERFORMER "snoop dogg"
    186. FLAGS DCP
    187. INDEX 00 53:37:01
    188. INDEX 01 53:39:01
    189. TRACK 32 AUDIO
    190. TITLE "187 um feat dr dre"
    191. PERFORMER "snoop dogg"
    192. FLAGS DCP
    193. INDEX 00 56:18:69
    194. INDEX 01 56:20:69
    195. TRACK 33 AUDIO
    196. TITLE "cali california"
    197. PERFORMER "snoop dogg"
    198. FLAGS DCP
    199. INDEX 00 59:24:17
    200. INDEX 01 59:26:17
    201. TRACK 34 AUDIO
    202. TITLE "ride feat eastwood"
    203. PERFORMER "snoop dogg"
    204. FLAGS DCP
    205. INDEX 00 61:38:40
    206. INDEX 01 61:40:40
    207. TRACK 35 AUDIO
    208. TITLE "gangster boogie feat dr dre and toddy tee"
    209. PERFORMER "snoop dogg"
    210. FLAGS DCP
    211. INDEX 00 63:55:35
    212. INDEX 01 63:57:35
    213. TRACK 36 AUDIO
    214. TITLE "the fatha figga feat 2pac"
    215. PERFORMER "snoop dogg"
    216. FLAGS DCP
    217. INDEX 00 65:51:59
    218. INDEX 01 65:53:59
    219. TRACK 37 AUDIO
    220. TITLE "i need a rolex feat dr dre, ice t and dj yella"
    221. PERFORMER "snoop dogg"
    222. FLAGS DCP
    223. INDEX 00 68:27:30
    224. INDEX 01 68:29:30
    225. TRACK 38 AUDIO
    226. TITLE "two of amerikaz most wanted feat 2pac"
    227. PERFORMER "snoop dogg"
    228. FLAGS DCP
    229. INDEX 00 70:08:68
    230. INDEX 01 70:10:68
    231. TRACK 39 AUDIO
    232. TITLE "if your friends seen me (what would i be) feat toddy tee"
    233. PERFORMER "snoop dogg"
    234. FLAGS DCP
    235. INDEX 00 72:11:61
    236. INDEX 01 72:13:61
    237. TRACK 40 AUDIO
    238. TITLE "puppy love feat kurupt, daz dillinger and nate dogg"
    239. PERFORMER "snoop dogg"
    240. FLAGS DCP
    241. INDEX 00 73:25:04
    242. INDEX 01 73:27:04
    Alles anzeigen